NEW! Join our Telegram Group and Channel For Latest Movies! JOIN NOW

4k/Remux

Download F9 The Fast Saga 2021 Director’s Cut 1080p BluRay REMUX AVC TrueHD 7.1 Atmos – PmP (iNextMovies) | Drive Link

Prime Video: Fast & Furious 9 (Director's Cut)

General
Unique ID : 11631330075482454943619125451119773000 (0x8C01CD9280407DC2408148D4C81C548)
Complete name : F9.The.Fast.Saga.2021.DC.1080p.BluRay.Remux.AVC.Atmos-PmP.mkv
Format : Matroska
Format version : Version 4
File size : 24.3 GiB
Duration : 2 h 29 min
Overall bit rate mode : Variable
Overall bit rate : 23.2 Mb/s
Movie name : F9: The Fast Saga (2021) Director’s Cut
Encoded date : UTC 2021-08-31 13:27:34
Writing application : mkvmerge v61.0.0 (‘So’) 64-bit
Writing library : libebml v1.4.2 + libmatroska v1.6.4
IMDB : tt5433138
TMDB : movie/385128

Video
ID : 1
Format : AVC
Format/Info : Advanced Video Codec
Format profile : [email protected]
Format settings : CABAC / 4 Ref Frames
Format settings, CABAC : Yes
Format settings, ReFrames : 4 frames
Codec ID : V_MPEG4/ISO/AVC
Duration : 2 h 29 min
Bit rate mode : Variable
Bit rate : 19.3 Mb/s
Maximum bit rate : 31.0 Mb/s
Width : 1 920 pixels
Height : 1 080 pixels
Display aspect ratio : 16:9
Frame rate mode : Constant
Frame rate : 23.976 (24000/1001) FPS
Color space : YUV
Chroma subsampling : 4:2:0
Bit depth : 8 bits
Scan type : Progressive
Bits/(Pixel*Frame) : 0.388
Stream size : 20.2 GiB (83%)
Title : MPEG-4 AVC Video / 19391 kbps / 1080p / 23.976 fps / 16:9 / High Profile 4.1
Language : English
Default : Yes
Forced : No

Audio #1
ID : 2
Format : MLP FBA 16-ch
Format/Info : Meridian Lossless Packing FBA with 16-channel presentation
Commercial name : Dolby TrueHD with Dolby Atmos
Codec ID : A_TRUEHD
Duration : 2 h 29 min
Bit rate mode : Variable
Bit rate : 3 095 kb/s
Maximum bit rate : 4 590 kb/s
Channel(s) : 8 channels
Channel layout : L R C LFE Ls Rs Lb Rb
Sampling rate : 48.0 kHz
Frame rate : 1 200.000 FPS (40 SPF)
Compression mode : Lossless
Stream size : 3.24 GiB (13%)
Title : Dolby TrueHD/Atmos Audio / 7.1+11 objects / 48 kHz / 3095 kbps / 16-bit
Language : English
Default : Yes
Forced : No
Number of dynamic objects : 11
Bed channel count : 1 channel
Bed channel configuration : LFE

Audio #2
ID : 3
Format : AC-3
Format/Info : Audio Coding 3
Commercial name : Dolby Digital
Codec ID : A_AC3
Duration : 2 h 29 min
Bit rate mode : Constant
Bit rate : 448 kb/s
Channel(s) : 6 channels
Channel layout : L R C LFE Ls Rs
Sampling rate : 48.0 kHz
Frame rate : 31.250 FPS (1536 SPF)
Bit depth : 16 bits
Compression mode : Lossy
Stream size : 480 MiB (2%)
Title : Compatibility Track / Dolby Digital Audio / 5.1 / 48 kHz / 448 kbps
Language : English
Service kind : Complete Main
Default : No
Forced : No

Audio #3
ID : 4
Format : AC-3
Format/Info : Audio Coding 3
Commercial name : Dolby Digital
Codec ID : A_AC3
Duration : 2 h 29 min
Bit rate mode : Constant
Bit rate : 192 kb/s
Channel(s) : 2 channels
Channel layout : L R
Sampling rate : 48.0 kHz
Frame rate : 31.250 FPS (1536 SPF)
Bit depth : 16 bits
Compression mode : Lossy
Stream size : 206 MiB (1%)
Title : Commentary by producer/co-writer/director Justin Lin
Language : English
Service kind : Complete Main
Default : No
Forced : No

Text #1
ID : 5
Format : PGS
Codec ID : S_HDMV/PGS
Codec ID/Info : Picture based subtitle format used on BDs/HD-DVDs
Duration : 2 h 23 min
Bit rate : 37.5 kb/s
Count of elements : 4081
Stream size : 38.4 MiB (0%)
Title : SDH
Language : English
Default : No
Forced : No

Text #2
ID : 6
Format : PGS
Codec ID : S_HDMV/PGS
Codec ID/Info : Picture based subtitle format used on BDs/HD-DVDs
Duration : 2 h 20 min
Bit rate : 66.5 kb/s
Count of elements : 4567
Stream size : 67.0 MiB (0%)
Title : Commentary by producer/co-writer/director Justin Lin
Language : English
Default : No
Forced : No

Menu
00:00:00.000 : Chapter 1
00:04:47.579 : Chapter 2
00:12:27.913 : Chapter 3
00:21:53.270 : Chapter 4
00:26:43.268 : Chapter 5
00:31:43.568 : Chapter 6
00:35:36.717 : Chapter 7
00:45:33.772 : Chapter 8
00:53:42.761 : Chapter 9
01:01:12.668 : Chapter 10
01:05:24.295 : Chapter 11
01:13:55.472 : Chapter 12
01:25:26.120 : Chapter 13
01:35:27.805 : Chapter 14
01:41:34.129 : Chapter 15
01:47:08.380 : Chapter 16
01:57:42.471 : Chapter 17
02:08:02.090 : Chapter 18
02:12:25.478 : Chapter 19
02:17:20.940 : Chapter 20

if You Face Any issue With Download Links Or want to Request Any Movies & Series Join Our Telegram Group

Leave a Reply

Your email address will not be published. Required fields are marked *